Vsetko zadarmo

Vsetko zadarmo
 
DomovFAQHľadaťRegistráciaZoznam užívateľovUžívateľské skupinyPrihlásenie

Share | 
 

 Scary Movie: Děsnej biják/Scary Movie(2000)

Zobraziť predchádzajúcu tému Zobraziť nasledujúcu tému Goto down 
AutorSpráva
aismen
Mega Uploader
Mega Uploader


Počet príspevkov : 703
Registration date : 16.04.2008

OdoslaťPredmet: Scary Movie: Děsnej biják/Scary Movie(2000)   St marec 31, 2010 5:36 am


Scary Movie: Děsnej biják
Scary Movie / Strašné kino
Scary Movie


Komedie / Horor / Mysteriózní
USA, 2000, 85 min

Režie: Keenen Ivory Wayans
Hrají: Shawn Wayans, Marlon Wayans, Shannon Elizabeth, Anna Faris, Jon Abrahams, Lochlyn Munro, Regina Hall, Dave Sheridan, Carmen Electra, Kurt Fuller, Rick Ducommun, Tanja Reichert, Keenen Ivory Wayans, Dexter Bell, James Van Der Beek, Bruce Mahler, Cheri Oteri
:*scrn*:

:*csfd*:
http://www.csfd.cz/film/29833-scary-movie-desnej-bijak-scary-movie/
:*kvalita*:
kód:
Video
ID                              : 224 (0xE0)
Format                          : MPEG Video
Format version                  : Version 2
Format profile                  : Main@Main
Format settings, BVOP            : Yes
Format settings, Matrix          : Default
Format_Settings_GOP              : M=3, N=15
Duration                        : 1h 12mn
Bit rate mode                    : Variable
Bit rate                        : 1 698 Kbps
Nominal bit rate                : 9 641 Kbps
Width                            : 720 pixels
Height                          : 576 pixels
Display aspect ratio            : 16:9
Frame rate                      : 25.000 fps
Standard                        : PAL
Resolution                      : 8 bits
Colorimetry                      : 4:2:0
Scan type                        : Progressive
Scan order                      : Top Field First
Bits/(Pixel*Frame)              : 0.164
Stream size                      : 883 MiB (86%)

Audio
ID                              : 128 (0x80)
Format                          : AC-3
Format/Info                      : Audio Coding 3
Duration                        : 1h 12mn
Bit rate mode                    : Constant
Bit rate                        : 192 Kbps
Channel(s)                      : 2 channels
Channel positions                : L R
Sampling rate                    : 48.0 KHz
Stream size                      : 99.9 MiB (10%)

OBSAH:
V poklidném americkém městečku začne zničehonic řádit vrah ve známé halloweenské masce a černém kostýmu. Jeho akce ovšem mají velmi svérázný průběh - někdy ho překvapí oběť nečekanou reakcí, jindy se zdrží na marihuanovém večírku, pak ho pro změnu při vraždění předběhne někdo jiný...
:*down*:
CD1
kód:
http://www.upnito.sk/subor/d12e34eef77ffe3de11536f9e87656dd.html
CD2
kód:
http://www.upnito.sk/subor/e390bf349a0eef51fd7fddab3d8b2e97.html
:*pass*:
no pass
Návrat hore Goto down
Zobrazit informácie o autorovi http://warnerfilm.forumn.org
 
Scary Movie: Děsnej biják/Scary Movie(2000)
Zobraziť predchádzajúcu tému Zobraziť nasledujúcu tému Návrat hore 
Strana 1 z 1

Povolenie tohoto fóra:Nemôžete odpovedať na témy v tomto fóre.
Vsetko zadarmo :: .::Download filmy::. :: .::Filmy s ceskym a slovenskym dabingom::.-
Prejdi na: