Vsetko zadarmo

Vsetko zadarmo
 
DomovFAQHľadaťRegistráciaZoznam užívateľovUžívateľské skupinyPrihlásenie

Share | 
 

 Sin Nombre/Without Name (2009)

Zobraziť predchádzajúcu tému Zobraziť nasledujúcu tému Goto down 
AutorSpráva
aismen
Mega Uploader
Mega Uploader


Počet príspevkov : 703
Registration date : 16.04.2008

OdoslaťPredmet: Sin Nombre/Without Name (2009)   Ut marec 30, 2010 6:27 pm

Sin Nombre
Sin Nombre
Without Name

Krimi / Drama / Thriller
Mexiko / USA, 2009, 96 min

Režie: Cary Fukunaga
Hrají: Paulina Gaitan, Edgar Flores
:*scrn*:

:*csfd*:
http://www.csfd.cz/film/254456-sin-nombre/
OBSAH:
Sedmnáctiletý Casper patří k mexickému pouličnímu gangu Mara Salvatrucha, pro jehož členy je nejvyšší hodnotou smrt příslušníka gangu soupeřícího. Osudová náhoda jej svede dohromady se stejně starou Sayrou, která se spolu s otcem a strýcem snaží přejet na střeše vlaku z rodného Hondurasu přes Mexiko do vysněných USA. Debutující Fukunaga umně mísí různé žánry, od thrilleru přes sociální drama na téma ilegální imigrace až po love story a western, aniž by v kterémkoli z nich působil nevěrohodně. Podmanivá vizuální stránka filmu využívá fotogeničnosti mexické krajiny viděné ze střechy vlaku, ani na okamžik však nesklouzne k ...
:*kvalita*:
kód:
Format                          : AVI
Format/Info                      : Audio Video Interleave
File size                        : 1.46 GiB
Duration                        : 1h 31mn
Overall bit rate                : 2 280 Kbps
Writing application              : VirtualDubMod 1.5.10.2 (build 2540/release)
Writing library                  : VirtualDubMod build 2540/release

Video
ID                              : 0
Format                          : MPEG-4 Visual
Format profile                  : Advanced Simple@L5
Format settings, BVOP            : Yes
Format settings, QPel            : No
Format settings, GMC            : No warppoints
Format settings, Matrix          : Default (H.263)
Muxing mode                      : Packed bitstream
Codec ID                        : XVID
Codec ID/Hint                    : XviD
Duration                        : 1h 31mn
Bit rate                        : 1 822 Kbps
Width                            : 624 pixels
Height                          : 336 pixels
Display aspect ratio            : 1.857
Frame rate                      : 25.000 fps
Resolution                      : 8 bits
Colorimetry                      : 4:2:0
Scan type                        : Progressive
Bits/(Pixel*Frame)              : 0.348
Stream size                      : 1.17 GiB (80%)
Writing library                  : XviD 1.2.1 (UTC 2008-12-04)

Audio
ID                              : 1
Format                          : AC-3
Format/Info                      : Audio Coding 3
Codec ID                        : 2000
Duration                        : 1h 31mn
Bit rate mode                    : Constant
Bit rate                        : 448 Kbps
Channel(s)                      : 6 channels
Channel positions                : Front: L C R, Surround: L R, LFE
Sampling rate                    : 48.0 KHz
Stream size                      : 294 MiB (20%)
Alignment                        : Split accross interleaves
Interleave, duration            : 40 ms (1.00 video frame)
Interleave, preload duration    : 500 ms


:*down*:
kód:
http://www.upnito.sk/subor/04956f411f4402c0b08f5e82556cc362.html
http://www.upnito.sk/subor/b0af7ec028cd7f2b0d97928a0e204f93.html
http://www.upnito.sk/subor/e73deec12570595ef6501f4b92984114.html

:*pass*:
no pass

Návrat hore Goto down
Zobrazit informácie o autorovi http://warnerfilm.forumn.org
 
Sin Nombre/Without Name (2009)
Zobraziť predchádzajúcu tému Zobraziť nasledujúcu tému Návrat hore 
Strana 1 z 1

Povolenie tohoto fóra:Nemôžete odpovedať na témy v tomto fóre.
Vsetko zadarmo :: .::Download filmy::. :: .::Filmy s ceskym a slovenskym dabingom::.-
Prejdi na: