Vsetko zadarmo

Vsetko zadarmo
 
DomovFAQHľadaťRegistráciaZoznam užívateľovUžívateľské skupinyPrihlásenie

Share | 
 

 Saw VI/Saw VI(2009)

Zobraziť predchádzajúcu tému Zobraziť nasledujúcu tému Goto down 
AutorSpráva
aismen
Mega Uploader
Mega Uploader


Počet príspevkov : 703
Registration date : 16.04.2008

OdoslaťPredmet: Saw VI/Saw VI(2009)   So marec 27, 2010 4:42 pm

Saw VI
SAW VI

Krimi / Horor / Mysteriózní / Thriller
Kanada / USA / Velká Británie / Austrálie, 2009, 90 min



Režie: Kevin Greutert
Hrají: Tobin Bell, Costas Mandylor, Mark Rolston, Betsy Russell, Shawnee Smith, Peter Outerbridge, Tanedra Howard, Caroline Cave, George Newbern, Shauna MacDonald, Devon Bostick, Karen Cliche, James Gilbert, Jon Mack, Mpho Koaho

kód:
Format                          : AVI
Format/Info                      : Audio Video Interleave
File size                        : 1.37 GiB
Duration                        : 1h 31mn
Overall bit rate                : 2 143 Kbps
Writing application              : FairUse Wizard - http://fairusewizard.com
Writing library                  : The best and REALLY easy backup tool

Video
ID                              : 0
Format                          : MPEG-4 Visual
Format profile                  : Advanced Simple@L5
Format settings, BVOP            : Yes
Format settings, QPel            : No
Format settings, GMC            : No warppoints
Format settings, Matrix          : Default (MPEG)
Muxing mode                      : Packed bitstream
Codec ID                        : XVID
Codec ID/Hint                    : XviD
Duration                        : 1h 31mn
Bit rate                        : 1 685 Kbps
Width                            : 688 pixels
Height                          : 384 pixels
Display aspect ratio            : 16:9
Frame rate                      : 25.000 fps
Resolution                      : 8 bits
Colorimetry                      : 4:2:0
Scan type                        : Progressive
Bits/(Pixel*Frame)              : 0.255
Stream size                      : 1.07 GiB (79%)
Writing library                  : XviD 1.2.0.dev47 (UTC 2006-11-01)

Audio
ID                              : 1
Format                          : AC-3
Format/Info                      : Audio Coding 3
Codec ID                        : 2000
Duration                        : 1h 31mn
Bit rate mode                    : Constant
Bit rate                        : 448 Kbps
Channel(s)                      : 6 channels
Channel positions                : Front: L C R, Surround: L R, LFE
Sampling rate                    : 48.0 KHz
Stream size                      : 292 MiB (21%)
Alignment                        : Split accross interleaves
Interleave, duration            : 40 ms (1.00 video frame)
Interleave, preload duration    : 500 ms


OBSAH:
Mark Hoffman (Costas Mandylor) pokračuje v krvavém odkazu svého mentora Jigsawa (Tobin Bell), jenž před léty celou zvrácenou hru odstartoval. Kdo si pro tentokrát zaslouží bojovat o svůj život? Jaké hračky čekají na ne zcela nevinné oběti? A hlavně, řekl už mrtvý Jigsaw své poslední slovo?
Jednu z rolí v šestém dílu slavné krvavé série získala vítězka soutěže Scream Queen hudební stanice VH 1 Tanedra Howard. Název soutěže odkazuje na titul scream queen, který kdysi nosila herečka Jamie Lee Curtis za účinkování v hororech jako MLHA nebo série HALLOWEEN.

DOWNLOAD:
kód:
http://www.upnito.sk/subor/3d7030cebfcd43d13ca0e04224af6cdb.html
http://www.upnito.sk/subor/31bb0873930eaf08dd66f162154977f9.html
http://www.upnito.sk/subor/cc0c9f4fcc9479e141b08c1410b1369e.html



PASS:
no pass
Návrat hore Goto down
Zobrazit informácie o autorovi http://warnerfilm.forumn.org
 
Saw VI/Saw VI(2009)
Zobraziť predchádzajúcu tému Zobraziť nasledujúcu tému Návrat hore 
Strana 1 z 1

Povolenie tohoto fóra:Nemôžete odpovedať na témy v tomto fóre.
Vsetko zadarmo :: .::Download filmy::. :: .::Filmy s ceskym a slovenskym dabingom::.-
Prejdi na: