Vsetko zadarmo

Vsetko zadarmo
 
DomovFAQHľadaťRegistráciaZoznam užívateľovUžívateľské skupinyPrihlásenie

Share | 
 

 Otčím/Stepfather, The(2009)

Zobraziť predchádzajúcu tému Zobraziť nasledujúcu tému Goto down 
AutorSpráva
aismen
Mega Uploader
Mega Uploader


Počet príspevkov : 703
Registration date : 16.04.2008

OdoslaťPredmet: Otčím/Stepfather, The(2009)   Po marec 22, 2010 10:16 pm



Otčím
Stepfather
Stepfather, The


Horor / Thriller
USA, 2009, 101 min

Režie: Nelson McCormick
Hrají: Dylan Walsh, Penn Badgley, Sela Ward, Amber Heard, Jon Tenney, Sherry Stringfield, Jason Wiles, Paige Turco, Braeden Lemasters, Deirdre Lovejoy
:*scrn*:

:*kvalita*:
kód:
Format                          : AVI
Format/Info                      : Audio Video Interleave
File size                        : 1.37 GiB
Duration                        : 1h 37mn
Overall bit rate                : 1 994 Kbps
Writing application              : FairUse Wizard - http://fairusewizard.com
Writing library                  : The best and REALLY easy backup tool

Video
ID                              : 0
Format                          : MPEG-4 Visual
Format profile                  : Advanced Simple@L5
Format settings, BVOP            : Yes
Format settings, QPel            : No
Format settings, GMC            : No warppoints
Format settings, Matrix          : Default (MPEG)
Muxing mode                      : Packed bitstream
Codec ID                        : XVID
Codec ID/Hint                    : XviD
Duration                        : 1h 37mn
Bit rate                        : 1 601 Kbps
Width                            : 704 pixels
Height                          : 288 pixels
Display aspect ratio            : 2.40:1
Frame rate                      : 25.000 fps
Resolution                      : 8 bits
Colorimetry                      : 4:2:0
Scan type                        : Progressive
Bits/(Pixel*Frame)              : 0.316
Stream size                      : 1.10 GiB (80%)
Writing library                  : XviD 1.2.0.dev47 (UTC 2006-11-01)

Audio
ID                              : 1
Format                          : AC-3
Format/Info                      : Audio Coding 3
Codec ID                        : 2000
Duration                        : 1h 37mn
Bit rate mode                    : Constant
Bit rate                        : 384 Kbps
Channel(s)                      : 6 channels
Channel positions                : Front: L C R, Surround: L R, LFE
Sampling rate                    : 48.0 KHz
Stream size                      : 269 MiB (19%)
Alignment                        : Split accross interleaves
Interleave, duration            : 40 ms (1.00 video frame)
Interleave, preload duration    : 500 ms



OBSAH:
Zdánlivě normální chlap chce perfektní rodinu, ale když se jeho nová žena a nevlastní dítě neosvědčí, začne plánovat jejich odstranění.
:*csfd*:
http://www.csfd.cz/film/250896-otcim-stepfather-the/

:*down*:
kód:
http://www.upnito.sk/subor/4c80cfb94f51ca2cfeebbf071fe899f5.html
http://www.upnito.sk/subor/3926d0ba17155a552ec921ff3cd600bc.html

kód:
http://czshare.com/1220539/aoH9/Otcim.2009.AC3.DVDRip.XviD.CZ_EXeC(up_by_r).part1.rar
http://czshare.com/1221336/5UCN/Otcim.2009.AC3.DVDRip.XviD.CZ_EXeC(up_by_r).part2.rar
kód:

http://download.cz.hellshare.com/otcim-2009-ac3-dvdrip-xvid-cz-exec-up-by-r-part1.rar/1060854
http://download.cz.hellshare.com/otcim-2009-ac3-dvdrip-xvid-cz-exec-up-by-r-part2.rar/1061714
Uploady sa dajú kombinovať .

:*pass*:
kód:
no pass
Návrat hore Goto down
Zobrazit informácie o autorovi http://warnerfilm.forumn.org
 
Otčím/Stepfather, The(2009)
Zobraziť predchádzajúcu tému Zobraziť nasledujúcu tému Návrat hore 
Strana 1 z 1

Povolenie tohoto fóra:Nemôžete odpovedať na témy v tomto fóre.
Vsetko zadarmo :: .::Download filmy::. :: .::Filmy s ceskym a slovenskym dabingom::.-
Prejdi na: