Vsetko zadarmo

Vsetko zadarmo
 
DomovFAQHľadaťRegistráciaZoznam užívateľovUžívateľské skupinyPrihlásenie

Share | 
 

 Ghost Rider/Ghost Rider (2007)

Zobraziť predchádzajúcu tému Zobraziť nasledujúcu tému Goto down 
AutorSpráva
aismen
Mega Uploader
Mega Uploader


Počet príspevkov : 703
Registration date : 16.04.2008

OdoslaťPredmet: Ghost Rider/Ghost Rider (2007)   Ne marec 14, 2010 10:20 pm

Ghost Rider
Ghost Rider


Akční / Fantasy / Dobrodružný
USA, 2007, 105 min

Režie: Mark Steven Johnson
Hrají: Nicolas Cage, Eva Mendes, Wes Bentley, Peter Fonda, Sam Elliott, Raquel Alessi, Donal Logue, Brett Cullen, Matt Long, Jessica Napier, Ryan Johnson, Sally Anne Arnott, Braydn Michael, Joel Tobeck, Charlie Garber


kód:

Format                          : AVI
Format/Info                      : Audio Video Interleave
File size                        : 1.29 GiB
Duration                        : 1h 40mn
Overall bit rate                : 1 841 Kbps
Writing application              : VirtualDubMod 1.5.4.1 (build 2066/release)
Writing library                  : VirtualDubMod build 2066/release

Video
ID                              : 0
Format                          : MPEG-4 Visual
Format profile                  : Simple@L3
Format settings, BVOP            : Yes
Format settings, QPel            : No
Format settings, GMC            : No warppoints
Format settings, Matrix          : Custom
Codec ID                        : XVID
Codec ID/Hint                    : XviD
Duration                        : 1h 40mn
Bit rate                        : 1 384 Kbps
Width                            : 704 pixels
Height                          : 304 pixels
Display aspect ratio            : 2.35:1
Frame rate                      : 25.000 fps
Resolution                      : 8 bits
Colorimetry                      : 4:2:0
Scan type                        : Progressive
Bits/(Pixel*Frame)              : 0.259
Stream size                      : 994 MiB (75%)
Writing library                  : XviD 1.0.1 (UTC 2004-06-05)

Audio
ID                              : 1
Format                          : AC-3
Format/Info                      : Audio Coding 3
Codec ID                        : 2000
Duration                        : 1h 40mn
Bit rate mode                    : Constant
Bit rate                        : 448 Kbps
Channel(s)                      : 6 channels
Channel positions                : Front: L C R, Surround: L R, LFE
Sampling rate                    : 48.0 KHz
Stream size                      : 322 MiB (24%)
Alignment                        : Split accross interleaves
Interleave, duration            : 40 ms (1.00 video frame)
Interleave, preload duration    : 500 ms
Language                        : Czech / Czech / Czech / Czech / Czech / Czech / Czech / Czech / Czech / Czech



OBSAH:
Ghost Rider je filmovou adaptací marvelovského komiksu o motocyklovém kaskadérovi jménem Johnny Blaze (Nicolas Cage), obyčejném muži, který chce zachránit svého otce před jistou smrtí, čehož zneužije Mefistoteles a nabídne mu nevýhodnou výměnu - zachrání otce, ale Blaze se bude muset stát jeho sluhou. Kaskadér se tak stane Ghost Riderem, démonem, jenž každou noc vyráží na temném hořícím motocyklu vykonávat přání vládce pekel. Jenže Blaze se dokáže Mefistetolovi vzepřít a svou nadpřirozenou moc použije v boji proti zlu...

INFO:
http://www.csfd.cz/film/6998-ghost-rider/

DOWNLOAD:
kód:
http://czshare.com/1215754/KG0k/Ghost_Rider.part1.rar
http://czshare.com/1215870/Uj2g/Ghost_Rider.part2.rar

kód:
http://www.upnito.sk/subor/25039829bd70ded0af7ffaeaaac9d915.html
http://www.upnito.sk/subor/bfedbba5100a9e360b82b17d8f28c60b.html

PASS:
kód:
no pass

Návrat hore Goto down
Zobrazit informácie o autorovi http://warnerfilm.forumn.org
 
Ghost Rider/Ghost Rider (2007)
Zobraziť predchádzajúcu tému Zobraziť nasledujúcu tému Návrat hore 
Strana 1 z 1

Povolenie tohoto fóra:Nemôžete odpovedať na témy v tomto fóre.
Vsetko zadarmo :: .::Download filmy::. :: .::Filmy s ceskym a slovenskym dabingom::.-
Prejdi na: