Vsetko zadarmo

Vsetko zadarmo
 
DomovFAQHľadaťRegistráciaZoznam užívateľovUžívateľské skupinyPrihlásenie

Share | 
 

 Kokain/Blow (2001)

Zobraziť predchádzajúcu tému Zobraziť nasledujúcu tému Goto down 
AutorSpráva
aismen
Mega Uploader
Mega Uploader


Počet príspevkov : 703
Registration date : 16.04.2008

OdoslaťPredmet: Kokain/Blow (2001)   Št marec 11, 2010 8:27 pm

Kokain
Kokaín
Blow

Krimi / Drama
USA, 2001, 124 min

Režie: Ted Demme
Hrají: Johnny Depp, Penélope Cruz, Franka Potente, Rachel Griffiths, Paul Reubens, Jordi Mollà, Cliff Curtis, Miguel Sandoval, Ethan Suplee, Ray Liotta, Kevin Gage, Max Perlich, Jesse James, Tony Amendola, Bob Goldthwait, Monet Mazur, Emma Roberts, Jaime King, Kevin Chapman, Ted Demme, Richard LaGravenese, Nick Cassavetes, Lola Glaudini, Elizabeth Rodriguez, Brian Goodman


OBSAH:
V 70. letech zaznamenal mezinárodní obchod s drogami rychlý vzestup a v jeho středu se ocitl zcela nenápadný a ve všem průměrný Američan. George Jung, hvězda školního fotbalového mužstva z malého města, se během několika let stal hlavním dovozcem kokainu z kolumbijského Medellínu. Film Blow je jeden z pravdivých příběhů čerpajících ze skutečnosti. Sleduje cestu George Junga od 60. let přes jeho první styky se světem drog na plážích v Kalifornii. Kšeftování s marihuanou bylo pro něj tehdy jen prostředkem k realizaci vlastního amerického snu. Díky seznámení s náboráři medellínského trustu se proměnil v profesionálního pašeráka. George ...
INFO:
http://www.csfd.cz/film/14321-kokain-blow/

kód:
Format                          : AVI
Format/Info                      : Audio Video Interleave
File size                        : 675 MiB
Duration                        : 1h 58mn
Overall bit rate                : 797 Kbps
Writing library                  : VirtualDub build 13720/release

Video
ID                              : 0
Format                          : MPEG-4 Visual
Format settings, BVOP            : Yes
Format settings, QPel            : No
Format settings, GMC            : No warppoints
Format settings, Matrix          : Default (H.263)
Codec ID                        : DX50
Codec ID/Hint                    : DivX 5
Duration                        : 1h 58mn
Bit rate                        : 723 Kbps
Width                            : 360 pixels
Height                          : 290 pixels
Display aspect ratio            : 5:4
Frame rate                      : 25.000 fps
Resolution                      : 8 bits
Scan type                        : Progressive
Bits/(Pixel*Frame)              : 0.277
Stream size                      : 613 MiB (91%)
Writing library                  : DivX 5.0.0 (UTC 2002-03-04)

Audio
ID                              : 1
Format                          : MPEG Audio
Format version                  : Version 1
Format profile                  : Layer 3
Codec ID                        : 55
Codec ID/Hint                    : MP3
Duration                        : 1h 58mn
Bit rate mode                    : Constant
Bit rate                        : 64.0 Kbps
Channel(s)                      : 1 channel
Sampling rate                    : 44.1 KHz
Stream size                      : 54.0 MiB (8%)
Alignment                        : Split accross interleaves
Interleave, duration            : 40 ms (1.00 video frame)
Interleave, preload duration    : 447 ms


DOWNLOAD:
kód:
http://x7.to/5j9f5s

PASS:

kód:
NOpass

Návrat hore Goto down
Zobrazit informácie o autorovi http://warnerfilm.forumn.org
 
Kokain/Blow (2001)
Zobraziť predchádzajúcu tému Zobraziť nasledujúcu tému Návrat hore 
Strana 1 z 1

Povolenie tohoto fóra:Nemôžete odpovedať na témy v tomto fóre.
Vsetko zadarmo :: .::Download filmy::. :: .::Filmy s ceskym a slovenskym dabingom::.-
Prejdi na: