Vsetko zadarmo

Vsetko zadarmo
 
DomovFAQHľadaťRegistráciaZoznam užívateľovUžívateľské skupinyPrihlásenie

Share | 
 

 Trestná lavice/Longest Yard, The(2005)

Zobraziť predchádzajúcu tému Zobraziť nasledujúcu tému Goto down 
AutorSpráva
aismen
Mega Uploader
Mega Uploader


Počet príspevkov : 703
Registration date : 16.04.2008

OdoslaťPredmet: Trestná lavice/Longest Yard, The(2005)   Št marec 11, 2010 8:25 pm

Trestná lavice
Za mrežami
Longest Yard, The


Komedie / Krimi / Drama / Sportovní
USA, 2005, 113 min

Režie: Peter Segal
Hrají: Adam Sandler, Burt Reynolds, Chris Rock, Nelly, Allen Covert, Terry Crews, Bill Goldberg, Edward Bunker, Cloris Leachman, David Patrick Kelly, Kevin Nash, Michael Papajohn, Ed Lauter, Proof, Sean McNamara, James Cromwell, Nicholas Turturro, Tracy Morgan, William Fichtner, Courteney Cox, Rob Schneider, Brian Bosworth, Steve Austin, Bob Sapp, Carlucci Weyant



OBSAH:
Poté co prodal zápas svého týmu a byl vyloučen z fotbalové ligy, v opilosti ukradne auto své přítelkyně a po honičce s policií je zavřen na 3 roky do věznice, kde dozorci mají své pravidla. Paul Crew (A. Sandler), hráč amerického fotbalu, se snaží sestavit tým z vězňů, kteří svedou boj s dozorci. Jenže dozorci mají vždy navrch a nikdo z vězňů se nechce dostat do problémů. Crew má proto hodně práce se sháněním týmu a ještě mu jde o krk.
INFO:
http://www.csfd.cz/film/168413-trestna-lavice-longest-yard-the/

kód:
Format                          : AVI
Format/Info                      : Audio Video Interleave
File size                        : 1.37 GiB
Duration                        : 1h 49mn
Overall bit rate                : 1 795 Kbps

Video
ID                              : 0
Format                          : MPEG-4 Visual
Format profile                  : Advanced Simple@L5
Format settings, BVOP            : Yes
Format settings, QPel            : No
Format settings, GMC            : No warppoints
Format settings, Matrix          : Custom
Codec ID                        : XVID
Codec ID/Hint                    : XviD
Duration                        : 1h 49mn
Bit rate                        : 1 341 Kbps
Width                            : 1 024 pixels
Height                          : 432 pixels
Display aspect ratio            : 2.35:1
Frame rate                      : 25.000 fps
Resolution                      : 8 bits
Colorimetry                      : 4:2:0
Scan type                        : Progressive
Bits/(Pixel*Frame)              : 0.121
Stream size                      : 1.02 GiB (75%)
Writing library                  : XviD 0039 build=2005.09.25 (UTC 2005-09-25)

Audio
ID                              : 1
Format                          : AC-3
Format/Info                      : Audio Coding 3
Codec ID                        : 2000
Duration                        : 1h 48mn
Bit rate mode                    : Constant
Bit rate                        : 448 Kbps
Channel(s)                      : 6 channels
Channel positions                : Front: L C R, Surround: L R, LFE
Sampling rate                    : 48.0 KHz
Stream size                      : 349 MiB (25%)
Alignment                        : Aligned on interleaves
Interleave, duration            : 96 ms (2.40 video frames)
Interleave, preload duration    : 96 ms


DOWNLOAD:
kód:
http://www.upnito.sk/subor/7a8bb411874815e2731fd60364bc07ce.html
http://www.upnito.sk/subor/4fe858e0ae01e4ed6a0022bbbb08dda9.html

PASS:
kód:
no

Návrat hore Goto down
Zobrazit informácie o autorovi http://warnerfilm.forumn.org
 
Trestná lavice/Longest Yard, The(2005)
Zobraziť predchádzajúcu tému Zobraziť nasledujúcu tému Návrat hore 
Strana 1 z 1

Povolenie tohoto fóra:Nemôžete odpovedať na témy v tomto fóre.
Vsetko zadarmo :: .::Download filmy::. :: .::Filmy s ceskym a slovenskym dabingom::.-
Prejdi na: