Vsetko zadarmo

Vsetko zadarmo
 
DomovFAQHľadaťRegistráciaZoznam užívateľovUžívateľské skupinyPrihlásenie

Share | 
 

 Akon ft. Snoop Dogg- I Wanna Love You

Zobraziť predchádzajúcu tému Zobraziť nasledujúcu tému Goto down 
AutorSpráva
aismen
Mega Uploader
Mega Uploader


Počet príspevkov : 703
Registration date : 16.04.2008

OdoslaťPredmet: Akon ft. Snoop Dogg- I Wanna Love You   Št marec 11, 2010 11:22 am

Akon ft. Snoop Dogg- I Wanna Love You



kód:
Format                          : Windows Media
File size                        : 146 MiB
Duration                        : 4mn 15s
Overall bit rate                : 4 791 Kbps
Maximum Overall bit rate        : 264 Kbps
Movie name                      : Akon  I Wanna Love You ft. Snoop Dogg
Encoded date                    : UTC 1970-01-01 00:00:00.000
Comment                          : http://atube-catcher.dsnetwb.com/

Video
ID                              : 1
Format                          : WMV1
Codec ID                        : WMV1
Codec ID/Info                    : Windows Media Video 7
Description of the codec        : wmv1
Duration                        : 4mn 15s
Bit rate                        : 4 528 Kbps
Width                            : 854 pixels
Height                          : 480 pixels
Display aspect ratio            : 16:9
Frame rate                      : 30.000 fps
Resolution                      : 8 bits
Bits/(Pixel*Frame)              : 0.368
Stream size                      : 138 MiB (95%)

Audio
ID                              : 2
Format                          : WMA
Format version                  : Version 2
Codec ID                        : 161
Codec ID/Info                    : Windows Media Audio
Description of the codec        : Windows Media Audio V8
Duration                        : 4mn 15s
Bit rate                        : 64.0 Kbps
Channel(s)                      : 2 channels
Sampling rate                    : 44.1 KHz
Resolution                      : 16 bits
Stream size                      : 1.95 MiB (1%)


DOWNLOAD:
kód:

http://uloz.to/4198084/akon-i-wanna-love-you-ft.-snoop-dogg.rar

PASS:
kód:
no

Návrat hore Goto down
Zobrazit informácie o autorovi http://warnerfilm.forumn.org
 
Akon ft. Snoop Dogg- I Wanna Love You
Zobraziť predchádzajúcu tému Zobraziť nasledujúcu tému Návrat hore 
Strana 1 z 1

Povolenie tohoto fóra:Nemôžete odpovedať na témy v tomto fóre.
Vsetko zadarmo :: .::Download videoklipov::. :: .::Hudobne klipi::.-
Prejdi na: