Vsetko zadarmo

Vsetko zadarmo
 
DomovFAQHľadaťRegistráciaZoznam užívateľovUžívateľské skupinyPrihlásenie

Share | 
 

 Zlatá brána/Falling Up(2009)

Zobraziť predchádzajúcu tému Zobraziť nasledujúcu tému Goto down 
AutorSpráva
aismen
Mega Uploader
Mega Uploader


Počet príspevkov : 703
Registration date : 16.04.2008

OdoslaťPredmet: Zlatá brána/Falling Up(2009)   Ut marec 09, 2010 9:46 pm

Zlatá brána
Falling Up


Romantický / Komedie / Drama
USA, 2009, 100 min

Hrají: Joseph Cross, Sarah Roemer, Snoop Dogg, Rachael Leigh Cook, Joe Pantoliano, Mimi Rogers, Annette O'Toole, Daniel Newman, Sam Page, Gordon Clapp, Ajay Naidu



OBSAH:
Student, Joseph Cross, je nucen odejít ze školy z rodiných důvodu a skončí jako vrátný v přepychové budově v New York City, kde jednoho dne nakopne obyvatele tohoto luxusního domu…
INFO:
http://www.csfd.cz/film/234114-zlata-brana-falling-up/
kód:
Format/Info                      : Hack of AVI
File size                        : 857 MiB
Duration                        : 1h 29mn
Overall bit rate                : 1 338 Kbps

Video
ID                              : 0
Format                          : MPEG-4 Visual
Format settings, BVOP            : Yes
Format settings, QPel            : No
Format settings, GMC            : No warppoints
Format settings, Matrix          : Default (H.263)
Muxing mode                      : Packed bitstream
Codec ID                        : DX50
Codec ID/Hint                    : DivX 5
Duration                        : 1h 29mn
Bit rate                        : 1 201 Kbps
Width                            : 720 pixels
Height                          : 576 pixels
Display aspect ratio            : 4:3
Frame rate                      : 25.000 fps
Standard                        : PAL
Resolution                      : 8 bits
Colorimetry                      : 4:2:0
Scan type                        : Progressive
Bits/(Pixel*Frame)              : 0.116
Stream size                      : 769 MiB (90%)
Title                            : Video
Writing library                  : DivX 2151

Audio
ID                              : 1
Format                          : MPEG Audio
Format version                  : Version 1
Format profile                  : Layer 3
Codec ID                        : 55
Codec ID/Hint                    : MP3
Duration                        : 1h 29mn
Bit rate mode                    : Constant
Bit rate                        : 128 Kbps
Channel(s)                      : 2 channels
Sampling rate                    : 48.0 KHz
Stream size                      : 82.0 MiB (10%)
Alignment                        : Split accross interleaves
Interleave, duration            : 40 ms (1.00 video frame)
Interleave, preload duration    : 500 ms
Title                            : Audio

DOWNLOAD:

kód:
http://czshare.com/1206757/bY_S/Zlat_.br_na.2009.TVRip.XviD.CZ_UniQue.up.by.UltimaThule.of.UCU.part1.rar
http://czshare.com/1206788/7YnT/Zlat_.br_na.2009.TVRip.XviD.CZ_UniQue.up.by.UltimaThule.of.UCU.part2.rar
PASS:
kód:
no pass

Návrat hore Goto down
Zobrazit informácie o autorovi http://warnerfilm.forumn.org
 
Zlatá brána/Falling Up(2009)
Zobraziť predchádzajúcu tému Zobraziť nasledujúcu tému Návrat hore 
Strana 1 z 1

Povolenie tohoto fóra:Nemôžete odpovedať na témy v tomto fóre.
Vsetko zadarmo :: .::Download filmy::. :: .::Filmy s ceskym a slovenskym dabingom::.-
Prejdi na: