Vsetko zadarmo

Vsetko zadarmo
 
DomovFAQHľadaťRegistráciaZoznam užívateľovUžívateľské skupinyPrihlásenie

Share | 
 

 Miluji tě, Beth Cooperová/I Love You, Beth Cooper (2009)

Zobraziť predchádzajúcu tému Zobraziť nasledujúcu tému Goto down 
AutorSpráva
aismen
Mega Uploader
Mega Uploader


Počet príspevkov : 703
Registration date : 16.04.2008

OdoslaťPredmet: Miluji tě, Beth Cooperová/I Love You, Beth Cooper (2009)   So marec 06, 2010 9:43 am

Miluji tě, Beth Cooperová
I Love You, Beth Cooper


Komedie
Kanada / USA, 2009, 102 min

Režie: Chris Columbus
Hrají: Hayden Panettiere, Samm Levine, Paul Rust, Cynthia Stevenson



INFO:
http://www.csfd.cz/film/241684-miluji-te-beth-cooperova-i-love-you-beth-cooper/

kód:
Format                          : AVI
Format/Info                      : Audio Video Interleave
File size                        : 800 MiB
Duration                        : 1h 37mn
Overall bit rate                : 1 145 Kbps
Writing application              : VirtualDubMod 1.5.10.2 (build 2540/release)
Writing library                  : VirtualDubMod build 2540/release

Video
ID                              : 0
Format                          : MPEG-4 Visual
Format profile                  : Advanced Simple@L5
Format settings, BVOP            : Yes
Format settings, QPel            : No
Format settings, GMC            : No warppoints
Format settings, Matrix          : Default (H.263)
Muxing mode                      : Packed bitstream
Codec ID                        : XVID
Codec ID/Hint                    : XviD
Duration                        : 1h 37mn
Bit rate                        : 1 002 Kbps
Width                            : 640 pixels
Height                          : 336 pixels
Display aspect ratio            : 1.905
Frame rate                      : 25.000 fps
Resolution                      : 8 bits
Colorimetry                      : 4:2:0
Scan type                        : Progressive
Bits/(Pixel*Frame)              : 0.186
Stream size                      : 699 MiB (87%)
Writing library                  : XviD 1.0.3 (UTC 2004-12-20)

Audio
ID                              : 1
Format                          : MPEG Audio
Format version                  : Version 1
Format profile                  : Layer 3
Format_Settings_Mode            : Joint stereo
Codec ID                        : 55
Codec ID/Hint                    : MP3
Duration                        : 1h 37mn
Bit rate mode                    : Variable
Bit rate                        : 131 Kbps
Channel(s)                      : 2 channels
Sampling rate                    : 48.0 KHz
Video delay                      : 480ms
Stream size                      : 91.5 MiB (11%)
Alignment                        : Split accross interleaves
Interleave, duration            : 24 ms (0.60 video frame)
Interleave, preload duration    : 1413 ms

OBSAH:
Čudák vyzná počas jeho reči na promóciách lásku najkrajšiemu a najobľúbenejšiemu dievčaťu v škole - Beth Cooper (Panettiere). Na jeho prekvapenie sa Beth tej noci ukáže v jeho dverách a chystá sa mu ukázať najlepšiu noc v jeho živote.

DOWNLOAD:
kód:

http://czshare.com/1200249/05xW/Miluji.te.Beth.Cooperova.2009.part1.rar
http://czshare.com/1200270/otRR/Miluji.te.Beth.Cooperova.2009.part2.rar


kód:
http://www.upnito.sk/subor/9860f25c935672c982ddfdce7a18339a.html
http://www.upnito.sk/subor/1c8b2d2f108fa948d75f7ec11f10931a.html
PASS:

kód:
NOpass

MOJA STRANKA :

Návrat hore Goto down
Zobrazit informácie o autorovi http://warnerfilm.forumn.org
 
Miluji tě, Beth Cooperová/I Love You, Beth Cooper (2009)
Zobraziť predchádzajúcu tému Zobraziť nasledujúcu tému Návrat hore 
Strana 1 z 1

Povolenie tohoto fóra:Nemôžete odpovedať na témy v tomto fóre.
Vsetko zadarmo :: .::Download filmy::. :: .::Filmy s ceskym a slovenskym dabingom::.-
Prejdi na: