Vsetko zadarmo

Vsetko zadarmo
 
DomovFAQHľadaťRegistráciaZoznam užívateľovUžívateľské skupinyPrihlásenie

Share | 
 

 Cesta na Měsíc 3D/Fly Me to the Moon(2007)

Zobraziť predchádzajúcu tému Zobraziť nasledujúcu tému Goto down 
AutorSpráva
aismen
Mega Uploader
Mega Uploader


Počet príspevkov : 703
Registration date : 16.04.2008

OdoslaťPredmet: Cesta na Měsíc 3D/Fly Me to the Moon(2007)   Št marec 04, 2010 8:24 pm

Cesta na Měsíc 3D
Cesta na Mesiac 3D
Fly Me to the Moon





Animovaný / Dobrodružný / Rodinný
Belgie, 2007, 84 min

Režie: Ben Stassen
Hrají: Adrienne Barbeau, Ed Begley Jr., Tim Curry, Christopher Lloyd, Robert Patrick


OBSAH:
Tři malí muší uličníci jsou nerozluční kamarádi. Každý je jiný: Nat je snílek a rozený vůdce, IQ má chytrý mozek a Scooter je neuvěřitelně žravý. Rok 1969: „Kosmická raketa Apollo 11 startuje první misi na Měsíc. Na palubě ponese tři odvážné astronauty - Armstronga, Aldrina a Collinse. Jejich kroky budou prvními kroky lidí po mesíčním povrchu…“ Pro Nata a jeho kamarády je to ta pravá příležitost splnit si svůj sen o obrovském dobrodružství… 3… 2… 1… START! Motory jsou zažehnuty a na palubě Apolla 11, v helmách astronautů, jsou schovaní naši tři muší dobrodruhové. Kouzelný animovaný příběh tří malých much, které se ...

kód:
Format                          : AVI
Format/Info                      : Audio Video Interleave
File size                        : 660 MiB
Duration                        : 1h 20mn
Overall bit rate                : 1 145 Kbps
Writing application              : MEncoder Sherpya-SVN-r29355-4.5.0
Writing library                  : MPlayer

Video
ID                              : 0
Format                          : MPEG-4 Visual
Format profile                  : Simple@L3
Format settings, BVOP            : No
Format settings, QPel            : No
Format settings, GMC            : No warppoints
Format settings, Matrix          : Default (H.263)
Codec ID                        : XVID
Codec ID/Hint                    : XviD
Duration                        : 1h 20mn
Bit rate                        : 1 009 Kbps
Width                            : 640 pixels
Height                          : 352 pixels
Display aspect ratio            : 16:9
Frame rate                      : 25.000 fps
Resolution                      : 8 bits
Colorimetry                      : 4:2:0
Scan type                        : Progressive
Bits/(Pixel*Frame)              : 0.179
Stream size                      : 581 MiB (88%)
Writing library                  : XviD 1.2.1 (UTC 2008-12-04)

Audio
ID                              : 1
Format                          : MPEG Audio
Format version                  : Version 1
Format profile                  : Layer 3
Format_Settings_Mode            : Joint stereo
Format_Settings_ModeExtension    : MS Stereo
Codec ID                        : 55
Codec ID/Hint                    : MP3
Duration                        : 1h 20mn
Bit rate mode                    : Variable
Bit rate                        : 124 Kbps
Channel(s)                      : 2 channels
Sampling rate                    : 44.1 KHz
Stream size                      : 71.4 MiB (11%)
Alignment                        : Aligned on interleaves
Interleave, duration            : 26 ms (0.65 video frame)
Interleave, preload duration    : 657 ms




DOWNLOAD:
kód:
http://www.upnito.sk/subor/4028758760468abb66f3e3087b249aff.html



PASS:

kód:
NOpass
Návrat hore Goto down
Zobrazit informácie o autorovi http://warnerfilm.forumn.org
 
Cesta na Měsíc 3D/Fly Me to the Moon(2007)
Zobraziť predchádzajúcu tému Zobraziť nasledujúcu tému Návrat hore 
Strana 1 z 1

Povolenie tohoto fóra:Nemôžete odpovedať na témy v tomto fóre.
Vsetko zadarmo :: .::Download filmy::. :: .::Filmy s ceskym a slovenskym dabingom::.-
Prejdi na: