Vsetko zadarmo

Vsetko zadarmo
 
DomovFAQHľadaťRegistráciaZoznam užívateľovUžívateľské skupinyPrihlásenie

Share | 
 

 G-FORCE/G - Force: Veľmi zvláštna jednotka (2009)

Zobraziť predchádzajúcu tému Zobraziť nasledujúcu tému Goto down 
AutorSpráva
aismen
Mega Uploader
Mega Uploader


Počet príspevkov : 703
Registration date : 16.04.2008

OdoslaťPredmet: G-FORCE/G - Force: Veľmi zvláštna jednotka (2009)   Št marec 04, 2010 8:22 pm

G-FORCE
G - Force: Veľmi zvláštna jednotka
G-Force

Akční / Dobrodružný / Rodinný / Fantasy
USA, 2009, 88 min




Režie: Hoyt Yeatman
Hrají: Nicolas Cage, Sam Rockwell, Steve Buscemi, Penélope Cruz, Kelli Garner, Jon Favreau, Will Arnett, Tracy Morgan, Bill Nighy, Tyler Patrick Jones, Chris Ellis, Zach Galifianakis, Gabriel Casseus, Justin Mentell


INFO:
http://www.csfd.cz/film/235827-gforce-gforce/
kód:

Video
ID                              : 0
Format                          : MPEG-4 Visual
Format profile                  : Simple@L3
Format settings, BVOP            : No
Format settings, QPel            : No
Format settings, GMC            : No warppoints
Format settings, Matrix          : Default (H.263)
Codec ID                        : XVID
Codec ID/Hint                    : XviD
Duration                        : 1h 24mn
Bit rate                        : 1 029 Kbps
Width                            : 640 pixels
Height                          : 264 pixels
Display aspect ratio            : 2.40:1
Frame rate                      : 25.000 fps
Resolution                      : 8 bits
Colorimetry                      : 4:2:0
Scan type                        : Progressive
Bits/(Pixel*Frame)              : 0.244
Stream size                      : 623 MiB (88%)
Writing library                  : XviD 1.1.2 (UTC 2006-11-01)

Audio
ID                              : 1
Format                          : MPEG Audio
Format version                  : Version 1
Format profile                  : Layer 3
Format_Settings_Mode            : Joint stereo
Format_Settings_ModeExtension    : MS Stereo
Codec ID                        : 55
Codec ID/Hint                    : MP3
Duration                        : 1h 24mn
Bit rate mode                    : Constant
Bit rate                        : 128 Kbps
Channel(s)                      : 2 channels
Sampling rate                    : 48.0 KHz
Stream size                      : 77.5 MiB (11%)
Alignment                        : Aligned on interleaves
Interleave, duration            : 24 ms (0.60 video frame)
Writing library                  : LAME3.97



OBSAH:
Tým trénovaných tajných agentov - morských prasiatok - plní misie pre Americkú vládu. Špeciálne trénovaná skupina morských prasiatok, je poslaná zastaviť diabolského bilionára, ktorý má v úmysle prevziať vládu nad svetom pomocou svojich mechanizovaných monštier.



DOWNLOAD:
kód:

http://download.hellshare.sk/g-force-part1.rar/1024901
http://download.hellshare.sk/g-force-part2.rar/1025316

kód:
http://czshare.com/1200462/K85t/g_force.part2.rar
http://czshare.com/1200459/uOGR/g_force.part1.rar

PASS:

kód:
NOpass
Návrat hore Goto down
Zobrazit informácie o autorovi http://warnerfilm.forumn.org
 
G-FORCE/G - Force: Veľmi zvláštna jednotka (2009)
Zobraziť predchádzajúcu tému Zobraziť nasledujúcu tému Návrat hore 
Strana 1 z 1

Povolenie tohoto fóra:Nemôžete odpovedať na témy v tomto fóre.
Vsetko zadarmo :: .::Download filmy::. :: .::Filmy s ceskym a slovenskym dabingom::.-
Prejdi na: