Vsetko zadarmo

Vsetko zadarmo
 
DomovFAQHľadaťRegistráciaZoznam užívateľovUžívateľské skupinyPrihlásenie

Share | 
 

 Hurá do basy / Let's Go to Prison (2006)

Zobraziť predchádzajúcu tému Zobraziť nasledujúcu tému Goto down 
AutorSpráva
aismen
Mega Uploader
Mega Uploader


Počet príspevkov : 703
Registration date : 16.04.2008

OdoslaťPredmet: Hurá do basy / Let's Go to Prison (2006)   So máj 09, 2009 4:58 pm

Hurá do basy
Let's Go to Prison

Komedie
USA, 2006, 84 min

Režie:
Bob Odenkirk
Hrají: Chi McBride, David Koechner, Dylan Baker, Will Arnett, Dax Shepard, Michael Shannon, Amy Hill, Bob Odenkirk, Michael Hitchcock

OBSAH:


Celoživotní kriminálník a naprostý smolař John Lyshitski (Dax Shepard – Nekecej a pádluj) přišel na to, jak by se nejlépe pomstil soudci, který ho poslal do
vězení: Kéž by mohl jednou vidět jeho nesnesitelného syna Nelsona Biedermana IV (Will Arnett – Rodinná dovolená
a jiná neštěstí) taky sedět v base. Když je pak jednoho dne Nelson nespravedlivě obviněn a poslán do vězení, John se s radostí nechává zatknout s ním. A aby měl jistotu, že se jeho novému kámošovi dostane opravdu „správného zacházení“, zajistí si ubytování ve stejné cele. Hra
začíná! Život v base nahání hrůzu, jídlo
je ještě hroznější, a když si navíc vůdce ...





KVALITA FILMU:

kód:
Video
Format                          : MPEG-4 Visual
Format profile                  : Streaming Video@L1
Format settings, BVOP            : Yes
Format settings, QPel            : No
Format settings, GMC            : No warppoints
Format settings, Matrix          : Custom
Codec ID                        : XVID
Codec ID/Hint                    : XviD
Duration                        : 1h 25mn
Bit rate                        : 992 Kbps
Width                            : 640 pixels
Height                          : 352 pixels
Display aspect ratio            : 16/9
Frame rate                      : 25.000 fps
Resolution                      : 24 bits
Colorimetry                      : 4:2:0
Scan type                        : Progressive
Bits/(Pixel*Frame)              : 0.176
Stream size                      : 608 MiB (87%)
Writing library                  : XviD 1.1.2 (UTC 2006-11-01)

Audio
Format                          : MPEG Audio
Format version                  : Version 1
Format profile                  : Layer 3
Codec ID                        : 55
Codec ID/Hint                    : MP3
Duration                        : 1h 25mn
Bit rate mode                    : Variable
Bit rate                        : 136 Kbps
Minimum bit rate                : 128 Kbps
Channel(s)                      : 2 channels
Sampling rate                    : 48.0 KHz
Resolution                      : 16 bits
Stream size                      : 83.2 MiB (12%)
Alignment                        : Aligned on interleaves
Interleave, duration            : 24 ms (0.60 video frame)
Interleave, preload duration    : 135 ms
Writing library                  : LAME3.91
Encoding settings                : VBR (rh)
DOWNLOAD:
kód:
http://upnito.sk/download.php?dwToken=fcb3c96b8085f0ef83031b319445cccd
http://upnito.sk/download.php?dwToken=6989cb53ace88131a7ad7d547c71a7f3
http://upnito.sk/download.php?dwToken=73045c3c36a12b253f8216fe8020b061
http://upnito.sk/download.php?dwToken=1cbabb9791db9b4f0a87d5815aab4e10
http://upnito.sk/download.php?dwToken=119480835d81cd87806ff9cba695f462
http://upnito.sk/download.php?dwToken=ff2c10e8bae418daeaefdb81367e75a6
http://upnito.sk/download.php?dwToken=0677ba59ed52ab290351276e3201ce46
http://upnito.sk/download.php?dwToken=6ab6c3f7db2679afddbb7c1a4cf846d4
http://upnito.sk/download.php?dwToken=06e0eb8d7225bdeb454336eed0fe67e0


PASS:

bud je to
kód:
aismen
alebo
kód:
 axefilm
Návrat hore Goto down
Zobrazit informácie o autorovi http://warnerfilm.forumn.org
 
Hurá do basy / Let's Go to Prison (2006)
Zobraziť predchádzajúcu tému Zobraziť nasledujúcu tému Návrat hore 
Strana 1 z 1

Povolenie tohoto fóra:Nemôžete odpovedať na témy v tomto fóre.
Vsetko zadarmo :: .::Download filmy::. :: .::Filmy s ceskym a slovenskym dabingom::.-
Prejdi na: