Vsetko zadarmo

Vsetko zadarmo
 
DomovFAQHľadaťRegistráciaZoznam užívateľovUžívateľské skupinyPrihlásenie

Share | 
 

 Re: Zavan smrti / Wind Chill (2007) CZ

Zobraziť predchádzajúcu tému Zobraziť nasledujúcu tému Goto down 
AutorSpráva
aismen
Mega Uploader
Mega Uploader


Počet príspevkov : 703
Registration date : 16.04.2008

OdoslaťPredmet: Re: Zavan smrti / Wind Chill (2007) CZ   So apríl 11, 2009 7:34 pm

Závan smrti
Wind Chill


...CZ dabing...

Thriller / Horor
USA, 2007, 87 min

Režie: Gregory Jacobs
Hrají: Emily Blunt, Ashton Holmes, Martin Donovan, Ned Bellamy, Ian A. Wallace

INFO:
http://www.csfd.cz/film/224834-zavan-smrti-wind-chill/

KVALITA FILMU:

kód:
Video
Format                          : MPEG-4 Visual
Format profile                  : Streaming Video@L1
Format settings, BVOP            : Yes
Format settings, QPel            : No
Format settings, GMC            : No warppoints
Format settings, Matrix          : Default (H.263)
Muxing mode                      : Packed bitstream
Codec ID                        : XVID
Codec ID/Hint                    : XviD
Duration                        : 1h 51mn
Bit rate                        : 1 299 Kbps
Width                            : 640 pixels
Height                          : 352 pixels
Display aspect ratio            : 16/9
Frame rate                      : 25.000 fps
Resolution                      : 24 bits
Colorimetry                      : 4:2:0
Scan type                        : Progressive
Bits/(Pixel*Frame)              : 0.231
Stream size                      : 1.01 GiB (74%)
Writing library                  : XviD 1.2.0.dev47 (UTC 2006-11-01)

Audio
Format                          : AC-3
Format/Info                      : Audio Coding 3
Codec ID                        : 2000
Duration                        : 1h 51mn
Bit rate mode                    : Constant
Bit rate                        : 448 Kbps
Channel(s)                      : 6 channels
Channel positions                : Front: L C R, Surround: L R, LFE
Sampling rate                    : 48.0 KHz
Stream size                      : 356 MiB (25%)
Alignment                        : Split accross interleaves
Interleave, duration            : 40 ms (1.00 video frame)
Interleave, preload duration    : 500 ms

Obsah:
Když vysokoškolačka (Emily Blunt) potřebuje na Vánoce domů, může jet buďto autobusem
, a nebo se spolehnout na podívínského spolužáka (Ashton Holmes) s automobilem
. Ten ale nečekaně sjede z dálnice
s tím, že to vezme zkratkou. Po střetu s jiným vozem
ovšem skončí oba spolužáci napůl zasypáni sněhem, venku je mínus 30°C a
v okolí nehody se začnou objevovat podivné osoby a dít podivné věci...

DOWNLOAD:
kód:
http://upnito.sk/download.php?dwToken=ca0d4373677c83fe703a99aa0d5be752

PASS:
kód:
aismen
Návrat hore Goto down
Zobrazit informácie o autorovi http://warnerfilm.forumn.org
mhitix



Počet príspevkov : 1
Registration date : 14.04.2009

OdoslaťPredmet: Re: Re: Zavan smrti / Wind Chill (2007) CZ   Ut apríl 14, 2009 8:27 pm

Smile
Návrat hore Goto down
Zobrazit informácie o autorovi
 
Re: Zavan smrti / Wind Chill (2007) CZ
Zobraziť predchádzajúcu tému Zobraziť nasledujúcu tému Návrat hore 
Strana 1 z 1

Povolenie tohoto fóra:Nemôžete odpovedať na témy v tomto fóre.
Vsetko zadarmo :: .::Download filmy::. :: .::Filmy s ceskym a slovenskym dabingom::.-
Prejdi na: