Vsetko zadarmo

Vsetko zadarmo
 
DomovFAQHľadaťRegistráciaZoznam užívateľovUžívateľské skupinyPrihlásenie

Share | 
 

 zrcadla (2008)

Zobraziť predchádzajúcu tému Zobraziť nasledujúcu tému Goto down 
AutorSpráva
aismen
Mega Uploader
Mega Uploader


Počet príspevkov : 703
Registration date : 16.04.2008

OdoslaťPredmet: zrcadla (2008)   Pi apríl 10, 2009 7:54 pm

Zrcadla
Zrkadlá
Mirrors


Horor
USA, 2008, 110 min

Režie: Alexandre Aja
Hrají: Kiefer Sutherland, Paula Patton, Cameron Boyce, Erica Gluck, Amy Smart, Mary Beth Peil, John Shrapnel, Jason Flemyng, Tim Ahern, Julian Glover, Josh Cole, Ezra Buzzington, Ioana Abur, Darren Kent, Roz McCutcheon, Adina Rapiteanu, Tudor Stroescu, William Meredith, Bart Sidles, Jingdong Qin, Anca Damacus, Liliana Donici, Irina Saulescu, Aurelia Radulescu, George Dumitrescu, Jaymes Butler, Christopher Troxler

Obsah:
Ben Carson (Kiefer Sutherland) už zažil lepší dny. Před rokem byl tento lehkovážný policajt postaven mimo službu kvůli zastřelení kolegy. Tato nehoda ho stála nejen místo, ale vnesla mu do života alkohol a
vztek. Žena i děti se mu odcizily a on skončil na rozváleném gauči u své sestry. Carson se ze všech sil snaží získat rodinu zpět a vezme proto práci nočního hlídače v bývalém obchodním
domě. Ten, dříve symbol bohatství a úspěchu, nyní chátrá, zdevastovaný mohutným požárem, při kterém zemřelo mnoho nevinných lidí. Během obchůzek v obchodním domě
si Carson začne všímat, že s velkými ozdobnými zrcadly na zdech není něco v ...

INFO :
http://www.csfd.cz/film/222773-zrkadla-mirrors/

screen :


kód:
.....CZ dabing ....
kód:

kvalita filmu :
Format                          : AVI
Format/Info                      : Audio Video Interleave
File size                        : 1.36 GiB
Duration                        : 1h 51mn
Overall bit rate                : 1 757 Kbps
Writing application              : FairUse Wizard - http://fairusewizard.com
Writing library                  : The best and REALLY easy backup tool

Video
Format                          : MPEG-4 Visual
Format profile                  : Streaming Video@L1
Format settings, BVOP            : Yes
Format settings, QPel            : No
Format settings, GMC            : No warppoints
Format settings, Matrix          : Default (H.263)
Muxing mode                      : Packed bitstream
Codec ID                        : XVID
Codec ID/Hint                    : XviD
Duration                        : 1h 51mn
Bit rate                        : 1 299 Kbps
Width                            : 640 pixels
Height                          : 352 pixels
Display aspect ratio            : 16/9
Frame rate                      : 25.000 fps
Resolution                      : 24 bits
Colorimetry                      : 4:2:0
Scan type                        : Progressive
Bits/(Pixel*Frame)              : 0.231
Stream size                      : 1.01 GiB (74%)
Writing library                  : XviD 1.2.0.dev47 (UTC 2006-11-01)

Audio
Format                          : AC-3
Format/Info                      : Audio Coding 3
Codec ID                        : 2000
Duration                        : 1h 51mn
Bit rate mode                    : Constant
Bit rate                        : 448 Kbps
Channel(s)                      : 6 channels
Channel positions                : Front: L C R, Surround: L R, LFE
Sampling rate                    : 48.0 KHz
Stream size                      : 356 MiB (25%)
Alignment                        : Split accross interleaves
Interleave, duration            : 40 ms (1.00 video frame)
Interleave, preload duration    : 500 ms

DOWNLOAD :
kód:
http://upnito.sk/download.php?dwToken=4a7fdf2f6c7ee5fa6645ab65bb1214ba
http://upnito.sk/download.php?dwToken=adb2a4987b0fce9bb8b1e2b5e45f18d9

PASS :

kód:
aismen
Návrat hore Goto down
Zobrazit informácie o autorovi http://warnerfilm.forumn.org
 
zrcadla (2008)
Zobraziť predchádzajúcu tému Zobraziť nasledujúcu tému Návrat hore 
Strana 1 z 1

Povolenie tohoto fóra:Nemôžete odpovedať na témy v tomto fóre.
Vsetko zadarmo :: .::Download filmy::. :: .::Filmy s ceskym a slovenskym dabingom::.-
Prejdi na: